魔心吧资源论坛

 找回密码
 立即注册
搜索
热搜: 活动 交友 discuz
查看: 85|回复: 2

[韩国MTV下载] [master]Blackpink - Kill This Love ( Master 1080p)[4.1G/MOV/BD]

[复制链接]

158万

主题

159万

帖子

160万

积分

管理员

Rank: 9Rank: 9Rank: 9

积分
1600975
魔币
115 枚
金币
7323 枚
吧币
9 枚
发表于 2019-8-9 12:54:00 | 显示全部楼层 |阅读模式

sa1wmeixjvf.jpg

sa1wmeixjvf.jpg


General
Complete name      : E:\HDTV\Blackpink - Kill This Love 1080p Master ProRes LPCM.mov
Format         : MPEG-4
Format profile     : QuickTime
Codec ID       : qt 2005.03 (qt)
File size        : 4.10 GiB
Duration       : 3 min 10 s
Overall bit rate mode    : Variable
Overall bit rate     : 185 Mb/s
Encoded date       : UTC 2019-04-04 20:34:32
Tagged date      : UTC 2019-04-04 20:36:06
Writing library      : Apple QuickTime
TIM          : 00:00:00:00
TSC          : 24000
TSZ          : 1001
Video
ID         : 1
Format         : ProRes
Format version     : Version 0
Format profile     : 422 HQ
Codec ID       : apch
Duration       : 3 min 10 s
Bit rate mode      : Variable
Bit rate       : 184 Mb/s
Width        : 1 920 pixels
Height         : 1 080 pixels
Display aspect ratio   : 16:9
Frame rate mode      : Constant
Frame rate       : 23.976 (24000/1001) FPS
Color space      : YUV
Chroma subsampling     : 4:2:2
Scan type        : Progressive
Bits/(Pixel*Frame)     : 3.694
Stream size      : 4.06 GiB (99%)
Writing library      : Apple
Language       : English
Encoded date       : UTC 2019-04-04 20:34:32
Tagged date      : UTC 2019-04-04 20:34:32
Color primaries      : BT.709
Transfer characteristics   : BT.709
Matrix coefficients    : BT.709
Audio
ID         : 2
Format         : PCM
Format settings      : Little / Signed
Codec ID       : sowt
Duration       : 3 min 10 s
Bit rate mode      : Constant
Bit rate       : 1 536 kb/s
Channel(s)       : 2 channels
Channel positions    : Front: L R
Sampling rate      : 48.0 kHz
Bit depth        : 16 bits
Stream size      : 34.8 MiB (1%)
Language       : English
Encoded date       : UTC 2019-04-04 20:34:32
Tagged date      : UTC 2019-04-04 20:34:32
Other
ID         : 3
Type         : Time code
Format         : QuickTime TC
Duration       : 3 min 10 s
Time code of first frame   : 00:00:00:00
Time code, striped     : Yes
Language       : English
Encoded date       : UTC 2019-04-04 20:34:32
Tagged date      : UTC 2019-04-04 20:34:32
800积分
下载地址:
游客,如果您要查看本帖隐藏内容请回复



<
回复

使用道具 举报

0

主题

155

帖子

441

积分

B-音乐会员

Rank: 10Rank: 10Rank: 10

积分
441
魔币
0 枚
金币
286 枚
吧币
0 枚
发表于 2019-8-9 21:59:30 | 显示全部楼层
回复

使用道具 举报

0

主题

122

帖子

368

积分

白银VIP会员

Rank: 11Rank: 11Rank: 11Rank: 11

积分
368
魔币
20 枚
金币
206 枚
吧币
0 枚
发表于 2019-8-26 09:22:11 | 显示全部楼层
回复

使用道具 举报

这里是快捷回复,赶紧试试哦: 感谢 支持 不错 无奈 一般 生气 回帖 路过 顶帖
您需要登录后才可以回帖 登录 | 立即注册

本版积分规则

QQ|Archiver|手机版|小黑屋|魔心吧资源论坛

GMT+8, 2019-9-21 19:23 , Processed in 0.084443 second(s), 22 queries , Gzip On.

Powered by www.moxinv.com X3.4 © 2014-2015 moxinv.com & 魔心吧街拍网 Design

快速回复 返回顶部 返回列表